<?xml version="1.0" standalone="no"?>
<!DOCTYPE svg PUBLIC "-//W3C//DTD SVG 1.1//EN" "http://www.w3.org/Graphics/SVG/1.1/DTD/svg11.dtd" >
<svg xmlns="http://www.w3.org/2000/svg">
<metadata></metadata>
<defs>
<font id="webfontregular" horiz-adv-x="2048" >
<font-face units-per-em="2048" ascent="1920" descent="-128" />
<missing-glyph horiz-adv-x="1024" />
<glyph horiz-adv-x="0" d="M0 0z" />
<glyph horiz-adv-x="0" d="M0 0z" />
<glyph unicode=" " horiz-adv-x="1024" d="M0 0z" />
<glyph unicode="&#xa0;" horiz-adv-x="1024" d="M0 0z" />
<glyph unicode="&#x2000;" horiz-adv-x="951" />
<glyph unicode="&#x2001;" horiz-adv-x="1902" />
<glyph unicode="&#x2002;" horiz-adv-x="951" />
<glyph unicode="&#x2003;" horiz-adv-x="1902" />
<glyph unicode="&#x2004;" horiz-adv-x="634" />
<glyph unicode="&#x2005;" horiz-adv-x="475" />
<glyph unicode="&#x2006;" horiz-adv-x="317" />
<glyph unicode="&#x2007;" horiz-adv-x="317" />
<glyph unicode="&#x2008;" horiz-adv-x="237" />
<glyph unicode="&#x2009;" horiz-adv-x="380" />
<glyph unicode="&#x200a;" horiz-adv-x="105" />
<glyph unicode="&#x202f;" horiz-adv-x="380" />
<glyph unicode="&#x205f;" horiz-adv-x="475" />
<glyph unicode="&#x2139;" d="M74 878q0 258 126 478q128 218 346 346q220 126 478 126t478 -126q218 -128 346 -346q126 -220 126 -478q0 -260 -126 -478q-128 -218 -346 -346q-220 -128 -478 -128t-478 128q-218 128 -346 346q-126 218 -126 478zM706 284q0 -18 12 -30q12 -10 28 -10h556q16 0 28 10 q10 12 10 30v198q0 16 -10 28q-12 12 -28 12h-120v634q0 16 -10 28q-12 10 -30 10h-396q-16 0 -28 -10q-12 -12 -12 -28v-198q0 -18 12 -30q12 -10 28 -10h120v-396h-120q-16 0 -28 -12t-12 -28v-198zM866 1392q0 -16 10 -28q12 -10 30 -10h236q18 0 30 10q10 12 10 28v198 q0 18 -10 30q-12 10 -30 10h-236q-18 0 -30 -10q-10 -12 -10 -30v-198z" />
<glyph unicode="&#x2193;" horiz-adv-x="2194" d="M0 658q0 148 80 274t214 190q-2 34 -2 48q0 242 172 414t414 172q178 0 326 -100t216 -264q80 70 190 70q120 0 206 -84q86 -86 86 -208q0 -86 -48 -158q150 -34 244 -154q96 -120 96 -272q0 -182 -128 -312q-128 -128 -310 -128h-1244q-212 0 -362 150t-150 362z M586 842q0 -16 10 -28l402 -402q10 -10 26 -10t26 10l402 402q10 14 10 28q0 16 -10 26t-26 10h-256v402q0 14 -10 26q-12 10 -26 10h-220q-14 0 -26 -10q-10 -12 -10 -26v-402h-256q-16 0 -26 -12q-10 -10 -10 -24z" />
<glyph unicode="&#x25fc;" horiz-adv-x="1000" d="M0 0z" />
<glyph unicode="&#x2709;" d="M146 748q-2 40 32 58l1630 940q14 10 32 10t34 -12q32 -22 26 -62l-250 -1504q-4 -30 -32 -44q-14 -8 -30 -8q-10 0 -24 4l-442 182l-238 -290q-18 -22 -48 -22q-12 0 -22 4q-18 6 -30 24q-10 16 -10 34v342l846 1038l-1048 -906l-386 158q-36 14 -40 54z" />
<glyph unicode="&#xf099;" d="M360 460q30 -2 66 -2q190 0 338 116q-88 2 -158 54t-96 134q28 -4 50 -4q36 0 72 10q-94 18 -156 94q-62 74 -62 172v4q58 -32 124 -34q-56 36 -90 96q-32 60 -32 130q0 74 36 138q102 -126 250 -202q146 -76 312 -84q-6 32 -6 62q0 114 78 194q80 78 194 78 q118 0 198 -86q92 18 172 66q-30 -96 -118 -150q78 10 156 42q-56 -82 -136 -140v-36q0 -108 -32 -218q-32 -108 -98 -210q-64 -100 -154 -176q-90 -78 -218 -124t-272 -46q-228 0 -418 122z" />
<glyph unicode="&#xf09a;" d="M644 814v260h224v192q0 162 92 254q92 90 244 90q128 0 200 -12v-232h-138q-76 0 -102 -32q-26 -30 -26 -94v-166h256l-34 -260h-222v-668h-270v668h-224z" />
<glyph unicode="&#x1f525;" d="M239 626q-33 -150 8 -303t174 -282t395 -187q-110 58 -175 163t-74 230t41 254t168 235q-62 -204 28 -317t230 -65q140 46 223 -31t79 -191q0 -78 -35 -142t-113 -102q170 30 290 110t197 185t113 223t36 226q0 140 -50 230t-98 165t-66 154t46 197q-152 -12 -209 -108 t-43 -258q10 -108 -77 -167t-171 -9q-66 40 -66 109t58 127q62 62 99 159t20 211t-103 234t-266 226q82 -218 52 -350t-122 -226q-48 -52 -110 -100t-127 -99t-129 -111t-118 -138q-72 -102 -105 -252z" />
<glyph unicode="&#x1f56b;" d="M0 916v218q0 76 54 130q52 54 128 54h550q496 0 1024 438q60 0 102 -42q44 -44 44 -104v-438v-2q60 0 104 -42q42 -42 42 -104q0 -60 -42 -102q-44 -44 -104 -44v-438q0 -60 -44 -104q-42 -44 -102 -44q-478 398 -928 436q-68 -22 -104 -76q-38 -54 -36 -116 q2 -60 46 -104q-24 -38 -26 -76q-4 -36 6 -66t38 -62q28 -34 56 -58q26 -24 70 -58q-34 -66 -128 -94q-94 -30 -192 -14t-152 64q-8 26 -34 100t-36 108t-26 102t-18 116q0 48 4 112q6 64 26 126h-140q-74 0 -128 54t-54 130zM878 870q430 -48 878 -390v1092 q-450 -346 -878 -392v-310z" />
</font>
</defs>
</svg>
